#TITLE:Ojamajo Carnival;
#SUBTITLE:- Opening Theme;
#ARTIST:MAHO-dou;
#TITLETRANSLIT:;
#SUBTITLETRANSLIT:;
#ARTISTTRANSLIT:;
#CREDIT:Lisek;
#BANNER:bn.jpg;
#BACKGROUND:bg.jpg;
#LYRICSPATH:Ojamajo.lrc;
#CDTITLE:cdtitle.gif;
#MUSIC:OjamajoCarnival.mp3;
#OFFSET:-0.850;
#SAMPLESTART:15.580;
#SAMPLELENGTH:11.860;
#SELECTABLE:YES;
#BPMS:0.000=147.080;
#STOPS:;
#BGCHANGES:0.000=ojamajo.avi=1.000=0=0=1,
216.000=bg.png=1.000=1=0=1,
99999=-nosongbg-=1.000=0=0=0 // don't automatically add -songbackground-
;
// cache tags:
#FIRSTBEAT:4.000;
#LASTBEAT:216.000;
#SONGFILENAME:songs/Otaku's Dream 3rd Anime Mix/[Lisek] Ojamajo Carnival - Ojamajo Doremi OP/Ojamajo.sm;
#HASMUSIC:1;
#HASBANNER:1;
#MUSICLENGTH:93.520;
// end cache tags

//---------------dance-single - ----------------
#NOTES:
     dance-single:
     :
     Challenge:
     10:
     0.744,0.866,0.770,0.096,0.438,404.000,72.000,9.000,8.000,2.000:
0000
0000
0000
0000
,
1000
0001
1000
0001
1000
0000
0100
0000
1000
0000
0010
0000
1000
0000
0100
0000
,
1000
0000
0010
0000
1000
0010
0000
0000
0110
0000
0000
1001
0000
0000
0000
0000
,
0001
1000
0001
1000
0001
0000
1000
0000
0001
0000
0100
0000
0001
0000
1000
0000
,
1001
0000
0000
0000
0101
0000
0000
0000
1000
0010
0000
0110
0000
0000
1010
0000
,
1000
0010
1000
0010
1000
0000
0100
0000
1000
0000
0010
0000
1000
0000
0100
0000
,
1000
0000
0010
0000
1000
0010
0000
0000
0011
0000
0000
1010
0000
0000
0000
0000
,
0001
0100
0001
0100
0001
0000
0100
0000
0001
0000
1000
0000
0001
0000
1000
0000
,
0110
2MM2
0000
3003
,
1000
0000
0001
1000
0010
0000
0100
0001
1000
0000
1000
0000
0000
0000
0000
0000
,
1000
0100
0010
0001
1000
0010
0100
0001
0010
0100
1000
0010
0100
0001
1000
0000
,
2002
0000
0000
0000
0000
3003
1100
1010
,
0000
0101
0000
0000
0011
0000
1010
0000
0000
0000
0000
0000
0000
0000
0000
0000
,
1000
0000
1000
0100
0010
0000
0010
0100
1000
0000
1000
0000
0000
0000
0000
0000
,
0001
0010
0100
1000
0001
0100
0010
1000
0100
0010
0001
0100
0010
1000
0001
0000
,
2002
0000
0000
0000
0000
3003
0011
0101
,
0000
1010
0000
0000
0110
0000
0011
0000
0000
0000
1000
0000
0001
0000
1000
0000
,
0001
1000
0000
0000
1000
0001
0000
0000
0001
0010
0000
0000
0010
0100
0000
0000
,
0100
1000
0000
0000
0000
0001
1000
0001
,
1000
0001
0000
0000
0001
1000
0000
0000
1000
0100
0000
0000
0100
1000
0000
0000
,
1000
0100
0000
0000
0000
1000
0100
1000
,
0010
0100
0001
0010
0001
0100
0010
1000
,
0100
1000
0010
0100
0010
1000
0100
1000
,
0002
0000
1000
0000
1000
1000
1000
0000
,
1003
0100
0010
0001
1000
0001
1000
0001
,
1000
0001
1000
0001
1000
0010
1000
0010
1000
0000
0000
0000
1001
0000
0101
0000
,
0000
0000
0000
0000
0001
1000
0001
1000
,
0001
1000
0001
1000
0001
0100
0001
0100
0001
0000
0000
0000
0011
0000
1001
0000
,
0101
0000
1001
0000
1001
0010
1000
0010
,
1000
0001
1000
0001
1000
0010
1000
0010
1000
0000
0000
0000
0011
0000
1001
0000
,
0000
0000
0000
0000
0001
1000
0010
0100
,
0001
0100
0001
0100
0001
1000
0001
1000
0001
0000
0000
0000
0101
0000
1100
0000
,
0002
0000
0000
0000
0000
0010
1000
0010
,
1003
0001
1000
0001
1000
0000
0100
0000
1000
0000
0010
0000
0000
0000
0000
0000
,
1000
0100
1000
0000
0010
0000
1000
0000
0001
0000
0100
0000
0010
0000
1000
0000
,
1001
0101
1100
0110
,
0001
0100
0001
0100
0001
1000
0001
1000
0001
0100
0001
0100
0001
1000
0001
1000
,
0001
0000
1000
0000
0001
0000
0100
0000
0001
0000
1000
0000
0010
0000
1000
0100
,
1000
0000
0001
1000
0001
0000
1000
0100
1000
0000
0000
0000
1000
0000
0100
0000
,
1000
0010
0100
0001
0010
0001
0100
0010
,
011M
101M
111M
0000
,
1100
1100
0011
0011
1010
1010
0101
0101
,
0001
1000
0001
1000
0001
0000
1000
0000
0001
0000
0000
0000
1000
0000
1000
0000
,
0002
0000
0000
1003
0001
0100
0010
1000
,
0001
1000
0001
1000
0001
0100
0001
0000
1001
0000
0000
0000
0000
0000
0000
0000
,
1000
0000
0100
0000
1000
0000
0010
0000
1000
0000
0001
0000
0100
0000
0001
0010
,
0001
0000
0100
0010
0100
0000
1000
0100
1000
0000
0000
0000
1000
0000
0001
0000
,
0010
0001
0100
0010
1000
0100
1000
0010
,
M101
M110
M111
0000
,
1000
0100
1000
0010
0100
0010
1000
0100
,
1000
0100
1000
0010
1000
0000
0001
0000
1000
0000
0000
0000
1100
0000
0010
0000
,
1100
0010
0101
0010
0101
0010
1001
0010
,
1001
0101
1001
0011
1001
0000
0110
0011
,
0110
1010
0110
0000
1001
0011
0110
1010
,
1001
0000
0000
0000
;

//---------------dance-single - ----------------
#NOTES:
     dance-single:
     :
     Beginner:
     1:
     0.112,0.202,0.011,0.203,0.000,53.000,1.000,19.000,0.000,0.000:
0000
0000
0000
0000
,
1000
0000
0000
0000
,
0002
0000
0000
0003
,
1000
0000
0000
0000
,
0020
0000
0000
0030
,
1000
0000
0000
0000
,
0200
0000
0000
0300
,
1000
0000
0000
0000
,
2002
3003
0000
0000
,
2000
0000
3000
0000
,
0001
0000
0000
0000
,
2000
0000
0000
3000
,
0010
0000
0000
0000
,
0002
0000
0003
0000
,
0010
0000
0000
0000
,
0002
0000
0000
0003
,
0100
0000
0000
0000
,
0010
0000
0000
0000
,
0100
0000
0000
0000
,
0001
0000
0000
0000
,
0010
0000
0000
0000
,
0001
0000
0000
0000
,
0100
0000
0000
0000
,
0010
0000
0000
0000
,
0000
0000
0000
0000
,
0200
0000
0000
0300
,
0001
0000
0000
0000
,
0002
0000
0000
0003
,
0100
0000
0000
0000
,
0020
0000
0000
0030
,
1000
0000
0000
0000
,
2000
0000
0000
3000
,
0010
0000
0000
0000
,
1000
0000
0000
0000
,
0100
0000
0000
0000
,
1000
0000
0000
0000
,
0010
0000
0000
0000
,
0100
0000
0000
0000
,
0001
0000
0000
0000
,
1000
0000
0000
0000
,
0002
0000
0000
0003
,
1000
0000
0000
0000
,
0100
0000
0000
0000
,
1000
0000
0000
0000
,
0020
0000
0000
0030
,
0100
0000
0000
0000
,
0001
0000
0000
0000
,
0010
0000
0000
0000
,
0002
0000
0003
0000
,
0100
0000
0000
0000
,
0010
0000
0000
0000
,
1000
0000
0000
0000
,
0002
0000
0003
2000
,
0000
3000
0002
0000
,
0003
0000
0000
0000
;

//---------------dance-single - ----------------
#NOTES:
     dance-single:
     :
     Easy:
     3:
     0.185,0.260,0.000,0.150,0.000,107.000,0.000,14.000,0.000,0.000:
0000
0000
0000
0000
,
2000
0000
0000
0000
,
3001
1000
0001
0000
,
0002
0000
0000
0000
,
1003
0001
2000
3000
,
0200
0000
0000
0000
,
0310
0100
0010
0000
,
0002
0000
0000
0000
,
1000
1003
0000
0000
,
1000
0100
1000
0000
,
0001
1000
0001
1000
,
0002
0000
0000
0000
,
1003
0000
0000
0000
,
1000
0100
1000
0000
,
0001
0010
0001
0010
,
0002
0000
0000
0000
,
1003
0000
0000
0000
,
1000
0000
0001
0000
,
1000
0000
0000
0000
,
0010
0000
0100
0000
,
0010
0000
0000
0000
,
1000
0000
0001
0000
,
1000
0000
0010
0000
,
0200
0000
0000
0000
,
0300
0000
0000
0000
,
0002
0000
0000
0000
,
1003
0000
0000
0000
,
2000
0000
0000
0000
,
3001
0000
0000
0000
,
0020
0000
0000
0000
,
0130
0000
0000
0000
,
0200
0000
0000
0000
,
0310
0000
0000
0000
,
0001
0010
0001
0000
,
0001
0100
0001
0100
,
0002
0000
0000
0000
,
2003
0000
0000
0000
,
3001
0000
0100
0000
,
0001
0010
0001
0000
,
0100
0000
0001
0000
,
1000
1000
1000
0000
,
0001
0000
0100
0000
,
0010
1000
0010
0000
,
0100
0000
0001
0000
,
0100
0001
0100
0000
,
0001
0000
1000
0000
,
0010
0100
0010
0000
,
1000
0000
0001
0000
,
0100
0100
0100
0000
,
0001
0000
1000
0000
,
0001
0100
0001
0000
,
0001
0000
1000
0000
,
0001
1000
0001
0001
,
1000
0001
0001
1000
,
0001
0000
0000
0000
;

//---------------dance-single - ----------------
#NOTES:
     dance-single:
     :
     Medium:
     4:
     0.272,0.260,0.011,0.107,0.000,167.000,1.000,10.000,0.000,0.000:
0000
0000
0000
0000
,
1000
0001
1000
0001
,
1000
0010
1000
0000
,
0001
0100
0001
0100
,
0001
0010
0001
0000
,
1000
0010
1000
0010
,
1000
0100
1000
0000
,
0001
0010
0001
0010
,
0001
1001
0000
0000
,
1000
0000
1000
0000
0100
1000
0000
0000
,
0001
0010
0001
0100
,
0002
0000
0000
0000
0000
0000
0013
0001
,
1000
0000
0001
1000
0000
0000
0000
0000
,
1000
0100
1000
0000
,
0001
0100
0010
1000
,
0200
0000
0000
0000
0000
0000
1300
0100
,
1000
0000
0100
1000
0000
0000
0000
0000
,
1000
0001
0100
0010
,
1000
0000
0000
0000
,
0001
0100
0010
1000
,
0100
0000
0000
0000
,
1000
0001
0100
0001
,
0010
0001
0100
0001
,
2000
0000
0000
3000
,
0000
0000
0001
0010
,
0002
0000
0000
0000
0000
0000
0103
0001
,
0000
0000
1000
0100
,
2000
0000
0000
0000
0000
0000
3010
1000
,
0000
0000
0001
1000
,
0002
0000
0000
0000
0000
0000
1003
0001
,
0000
0000
0001
1000
,
0002
0000
0000
0000
0000
0000
1003
0001
,
0000
0000
0000
0000
,
1000
0100
1000
0000
,
1000
0100
1000
0010
,
0200
0000
0000
0300
,
0002
0000
0000
0003
,
1000
0100
1000
0010
,
0100
0001
0010
0001
,
0100
0010
1000
0100
,
1000
1000
1000
0000
,
0001
0100
0010
0100
,
0001
0010
0001
0100
,
0020
0000
0130
0001
,
0010
0001
0100
0000
,
0100
0010
1000
0100
,
1000
0010
0100
0001
,
0010
0001
1000
0001
,
1000
1000
1000
0000
,
1000
0100
1000
0010
,
1000
0100
0010
0001
,
0100
0001
0010
0001
,
1000
1000
1000
0001
,
0001
0001
1000
1000
,
1000
0000
0000
0000
;

//---------------dance-single - ----------------
#NOTES:
     dance-single:
     :
     Hard:
     7:
     0.394,0.433,0.107,0.107,0.000,238.000,10.000,10.000,0.000,0.000:
0000
0000
0000
0000
,
1000
0010
1000
0001
,
1000
0100
1000
0010
1000
0100
0000
0000
,
1000
0001
0100
0010
,
1001
0000
1001
0000
1000
0001
1000
0000
,
1000
0001
0100
0010
,
1000
0100
1000
0010
0100
0001
0000
0000
,
1000
0001
0100
0010
,
1001
0000
2002
0000
0000
0000
0000
3003
,
1000
0001
1000
0001
1000
1000
0000
0000
,
0001
0000
0100
0000
0010
0000
1000
0100
,
2000
0000
0000
0000
0000
0000
3001
1000
,
0001
0000
1000
0001
0000
0000
0000
0000
,
1000
0100
1000
0010
1000
1000
0000
0000
,
0001
0000
0100
0000
0010
0000
0100
0001
,
0200
0000
0000
0000
0000
0000
0310
0100
,
0010
0000
0100
0001
0000
0001
1000
0000
,
1000
0000
0010
0000
1000
0000
0100
1000
,
0100
1000
0000
0000
0000
0100
1000
0000
,
0100
0000
0010
0000
0001
0000
1000
0100
,
1000
0100
0000
0000
0000
1000
0001
0000
,
0010
0100
1000
0001
,
0010
0100
0010
0000
0001
1000
0001
1000
,
0002
0000
0000
0003
,
0000
0000
0000
0000
0001
1000
0001
1000
,
0002
0000
0000
0000
0000
0000
1003
1000
,
0000
0000
0000
0000
0010
0100
0010
0100
,
0020
0000
0000
0000
0000
0000
0130
0100
,
0001
0000
1000
0000
0001
1000
0001
1000
,
0002
0000
0000
0000
0000
0000
1003
1000
,
0000
0000
0000
0000
1000
0100
1000
0100
,
2000
0000
0000
0000
0000
0000
3100
0100
,
0000
0000
0000
0000
0000
1000
0001
0000
,
1000
0001
1000
0001
1000
0010
0000
0000
,
1000
0010
1000
0010
1000
0010
0100
0001
,
0010
0010
0010
0010
,
0002
0000
0000
0000
,
1003
1000
0100
0100
,
0100
0010
0001
0010
0100
0000
1000
0000
,
1000
0001
0001
1000
,
1001
0110
1001
0000
,
1000
0100
1000
0000
0001
0010
0001
0000
,
1000
0100
1000
0010
1000
0000
0001
0000
,
1000
0000
0001
0100
,
0010
1000
0010
1000
0010
0000
0000
0000
,
1000
1000
0001
0001
,
1000
0001
1000
0001
1000
0000
0010
0000
,
0100
0010
1000
0100
,
0011
0101
0110
0000
,
1000
0001
0100
0010
,
1000
0001
1000
0001
1000
0000
0001
1000
,
0001
0000
0001
1000
0001
1000
0001
0000
,
0001
0001
0001
0001
0001
0000
1000
1000
,
1000
1000
1000
0000
0001
0001
0001
0001
,
0001
0000
0000
0000
;
